<?xml version="1.0" standalone="no"?>
<!DOCTYPE svg PUBLIC "-//W3C//DTD SVG 1.1//EN" "http://www.w3.org/Graphics/SVG/1.1/DTD/svg11.dtd" >
<svg xmlns="http://www.w3.org/2000/svg" version="1.1">
<metadata></metadata>
<defs>
<font id="suzukiproheadlineregular" horiz-adv-x="420" >
<font-face units-per-em="1000" ascent="798" descent="-202" />
<missing-glyph horiz-adv-x="220" />
<glyph unicode="&#xfb01;" horiz-adv-x="472" d="M422 613q-13 3 -32 8t-41 9t-46 7t-48 3q-26 0 -45.5 -11t-19.5 -43v-46h247v-540h-140v440h-107v-440h-140v440h-50v100h50v40q0 47 15 79t39.5 51t56 27t64.5 8q64 0 110 -9t87 -20v-103z" />
<glyph unicode="&#xfb02;" horiz-adv-x="472" d="M297 0v635q-25 5 -42 5q-26 0 -45.5 -11t-19.5 -43v-46h62v-100h-62v-440h-140v440h-50v100h50v40q0 47 15 79t39.5 51t56 27t64.5 8q54 0 104 -10h108v-735h-140z" />
<glyph unicode="&#xfb03;" horiz-adv-x="719" d="M544 0v440h-107v-440h-140v440h-107v-440h-140v440h-50v100h50v30q0 47 15.5 79t40 51t56.5 27t65 8q43 0 77 -4.5t63 -10.5q23 13 50 19t55 6q64 0 110 -9t87 -20v-103q-13 3 -32 8t-41 9t-46 7t-48 3q-26 0 -45.5 -11t-19.5 -43v-46h247v-540h-140zM190 540h107v40 q0 30 4 47q-11 1 -23 2t-23 1q-26 0 -45.5 -11t-19.5 -43v-36z" />
<glyph unicode="&#xfb04;" horiz-adv-x="719" d="M437 440v-440h-140v440h-107v-440h-140v440h-50v100h50v30q0 47 15.5 79t40 51t56.5 27t65 8q43 0 77 -4.5t63 -10.5q23 13 50 19t55 6q54 0 104 -10h108v-735h-140v635q-25 5 -42 5q-26 0 -45.5 -11t-19.5 -43v-46h62v-100h-62zM190 540h107v40q0 30 4 47q-11 1 -23 2 t-23 1q-26 0 -45.5 -11t-19.5 -43v-36z" />
<glyph horiz-adv-x="0" />
<glyph unicode="&#xd;" horiz-adv-x="220" />
<glyph unicode=" "  horiz-adv-x="220" />
<glyph unicode="&#x09;" horiz-adv-x="220" />
<glyph unicode="&#xa0;" horiz-adv-x="220" />
<glyph unicode="!" horiz-adv-x="220" d="M35 0v140h150v-140h-150zM52 240l-15 480h146l-15 -480h-116z" />
<glyph unicode="&#x22;" horiz-adv-x="400" d="M180 631l-34 -173h-72l-34 172v105h140v-104zM360 631l-34 -173h-72l-34 172v105h140v-104z" />
<glyph unicode="#" d="M384 179h-54l-15 -179h-111l15 179h-54l-15 -179h-111l15 179h-48l8 98h49l13 153h-50l9 98h50l15 172h111l-15 -172h54l15 172h111l-15 -172h53l-9 -98h-53l-13 -153h54zM174 277h54l13 153h-54z" />
<glyph unicode="$" d="M159 -9q-36 9 -60 28.5t-39.5 43.5t-23 50t-10.5 47l135 20q2 -17 5 -34t8.5 -30.5t14 -21.5t22.5 -8q19 0 32 20t13 77q0 46 -26.5 72.5t-71.5 49.5q-33 17 -58 35t-42.5 41.5t-26 54t-8.5 72.5q0 75 34.5 127.5t101.5 68.5v96h102v-96q33 -8 56 -26t38 -40.5t23 -46.5 t11 -45l-136 -25q-5 39 -14.5 64t-31.5 25t-32.5 -19.5t-10.5 -65.5q0 -35 18 -58t68 -45q75 -33 111 -84t36 -141q0 -85 -33.5 -138.5t-102.5 -68.5v-105h-102v106z" />
<glyph unicode="%" horiz-adv-x="630" d="M233 0h-111l275 700h111zM30 541q0 85 28.5 127t94.5 42t94 -42t28 -127t-28 -126t-94 -41t-94.5 41t-28.5 126zM131 541q0 -30 1 -49t3.5 -30t7 -15t10.5 -4t10.5 4t7 15t3.5 30t1 49q0 60 -4.5 80t-17.5 20t-17.5 -20t-4.5 -80zM355 157q0 85 28.5 127t94.5 42t94 -42 t28 -127t-28 -126t-94 -41t-94.5 41t-28.5 126zM456 157q0 -30 1 -49t3.5 -30t7 -15t10.5 -4t10.5 4t7 15t3.5 30t1 49q0 60 -4.5 80t-17.5 20t-17.5 -20t-4.5 -80z" />
<glyph unicode="&#x26;" horiz-adv-x="596" d="M513 354q-5 -54 -17 -103.5t-31 -92.5l131 -158h-157l-45 53q-32 -30 -72.5 -46.5t-92.5 -16.5q-90 0 -142 49t-52 134q0 65 25 109t74 86q-23 31 -38 55t-23 44.5t-11 39.5t-3 40q0 25 8.5 54t28 53t52.5 40t81 16q52 0 84.5 -17.5t51.5 -43.5t26 -56.5t7 -56.5 q0 -51 -28 -93t-73 -80l78 -95q10 46 15 102zM249 105q40 0 72 36l-116 138q-16 -21 -22 -43t-6 -52q0 -42 21.5 -60.5t50.5 -18.5zM197 547q0 -14 1 -26t5 -23.5t11 -24.5t19 -29q22 23 26.5 47.5t4.5 56.5q0 35 -10 48.5t-24 13.5q-16 0 -24.5 -15t-8.5 -48z" />
<glyph unicode="'" horiz-adv-x="220" d="M180 631l-34 -173h-72l-34 172v105h140v-104z" />
<glyph unicode="(" horiz-adv-x="300" d="M30 329q0 95 12 166t31 126.5t41 100.5t42 88h124q-21 -46 -41.5 -96t-36.5 -108t-26 -126t-10 -150q0 -95 10 -167.5t26 -131t36.5 -107t41.5 -94.5h-124q-21 43 -43.5 90.5t-40.5 106.5t-30 132.5t-12 169.5z" />
<glyph unicode=")" horiz-adv-x="300" d="M270 329q0 -96 -12 -169.5t-30 -132.5t-40.5 -106.5t-43.5 -90.5h-124q21 46 41.5 94.5t36.5 107t26 131t10 167.5q0 82 -10 150t-26 126t-36.5 108t-41.5 96h124q20 -43 42 -88t41 -100.5t31 -126.5t12 -166z" />
<glyph unicode="*" horiz-adv-x="450" d="M256 595l121 80l43 -133l-145 -7l114 -90l-113 -82l-51 135l-51 -135l-113 82l113 90l-144 7l43 133l120 -80l-38 140h140z" />
<glyph unicode="+" d="M146 262h-116v118h116v129h128v-129h116v-118h-116v-129h-128v129z" />
<glyph unicode="," horiz-adv-x="225" d="M185 1l-84 -163h-81l55 162h-35v135h145v-134z" />
<glyph unicode="-" horiz-adv-x="300" d="M30 261v121h240v-121h-240z" />
<glyph unicode="." horiz-adv-x="225" d="M40 0v135h145v-135h-145z" />
<glyph unicode="/" horiz-adv-x="320" d="M125 -90h-125l195 820h125z" />
<glyph unicode="0" d="M26 349q0 98 8.5 166.5t29.5 112t56.5 63t90.5 19.5t90.5 -19.5t56.5 -63t29 -112t8 -166.5q0 -96 -8 -164t-29 -111.5t-56.5 -63.5t-90.5 -20t-90.5 20.5t-56.5 64t-29.5 111.5t-8.5 163zM169 349q0 -79 1.5 -129.5t6 -80t12.5 -40.5t22 -11q13 0 21.5 11t12.5 40.5 t5.5 80t1.5 129.5t-1.5 130t-5.5 81t-12.5 41.5t-21.5 11.5q-14 0 -22 -11.5t-12.5 -41.5t-6 -81t-1.5 -130z" />
<glyph unicode="1" d="M66 0v107h103v465l-112 -84v130l106 82h141v-593h83v-107h-321z" />
<glyph unicode="2" d="M207 602q-11 0 -18.5 -8t-12.5 -21t-8 -30.5t-5 -36.5l-133 17q3 30 14.5 63t33 60.5t55.5 45.5t82 18q37 0 68.5 -10.5t54 -34.5t35 -62.5t12.5 -94.5q0 -27 -5 -53.5t-16.5 -56t-30.5 -64t-47 -79.5l-88 -138h174v-117h-327v117l127 205q18 30 31 53t22 44t13 41.5 t4 44.5q0 32 -2.5 51t-7 29.5t-11 13.5t-14.5 3z" />
<glyph unicode="3" d="M202 95q9 0 16.5 4.5t12.5 16t7.5 32t2.5 52.5q0 41 -4.5 65t-13 36.5t-21.5 16t-31 3.5h-30v99h38q10 0 18.5 4t15 14.5t10.5 29t4 47.5q0 28 -2 45.5t-6 27.5t-10 13.5t-14 3.5q-11 0 -18 -7.5t-11.5 -19.5t-6.5 -27t-3 -30l-131 17q11 78 56.5 125t117.5 47 q36 0 67.5 -9t54.5 -31t36 -59.5t13 -94.5q0 -21 -5.5 -44t-16.5 -42.5t-28.5 -34t-41.5 -18.5q50 -5 79 -45q28 -40 28 -129q0 -59 -14 -99.5t-38 -66t-57.5 -36.5t-72.5 -11q-44 0 -74.5 14.5t-51 38.5t-32 55t-16.5 64l131 17q1 -14 3 -29t6.5 -27t12 -20t20.5 -8z" />
<glyph unicode="4" d="M338 444v-200h55v-107h-55v-137h-130v137h-184v114l108 449h132l-109 -456h60l22 200h101z" />
<glyph unicode="5" d="M201 95q10 0 17.5 5.5t12.5 20t7.5 40.5t2.5 67q0 43 -3 69.5t-8 41.5t-12 20.5t-15 5.5q-9 0 -22.5 -9.5t-20.5 -39.5h-108l19 384h281v-102h-159l-10 -169q12 14 29 24t42 10q28 0 52.5 -12.5t41.5 -40.5t27 -74t10 -112q0 -117 -50 -175.5t-134 -58.5q-47 0 -77.5 16 t-50 40t-29 52.5t-13.5 53.5l131 17q3 -28 11 -51t28 -23z" />
<glyph unicode="6" d="M222 612q-10 0 -17.5 -5.5t-12.5 -25.5t-8 -59t-4 -106q16 20 37 33.5t49 13.5q73 0 100.5 -55.5t27.5 -175.5q0 -70 -11.5 -116.5t-34 -74.5t-55 -39.5t-74.5 -11.5q-49 0 -83.5 15t-56.5 54t-32.5 106t-10.5 172q0 123 13.5 196.5t39 113t61 51.5t80.5 12t74 -15.5 t46 -39.5t25 -52t12 -53l-134 -17q-2 35 -8 57t-23 22zM215 355q-8 0 -17 -4t-18 -10q0 -87 2.5 -137t8 -75.5t12.5 -32t16 -6.5t15.5 4t10.5 18.5t5.5 41.5t1.5 74q0 39 -1.5 63.5t-6 38.5t-11.5 19.5t-18 5.5z" />
<glyph unicode="7" d="M211 0h-142l165 590h-201v110h333v-120z" />
<glyph unicode="8" d="M210 -10q-99 0 -143 52t-44 153q0 38 7.5 65.5t20.5 46t29.5 30t33.5 17.5q-37 18 -56.5 58t-19.5 106q0 100 43.5 146t128.5 46q81 0 126.5 -44t45.5 -141q0 -54 -24.5 -88.5t-56.5 -47.5q17 -6 34 -19t31 -35t22.5 -54.5t8.5 -78.5q0 -111 -44 -161.5t-143 -50.5z M249 202q0 29 -1.5 49t-7 33.5t-16 22.5t-27.5 16q-8 -7 -13 -14t-8 -19.5t-4 -33t-1 -54.5q0 -54 6.5 -82.5t32.5 -28.5t32.5 28.5t6.5 82.5zM244 518q0 33 -2.5 53t-7 31t-11 14.5t-13.5 3.5q-8 0 -14 -3.5t-10.5 -14.5t-7 -31t-2.5 -53q0 -48 13.5 -70.5t33.5 -27.5 q3 3 7 7.5t7 14.5t5 28t2 48z" />
<glyph unicode="9" d="M212 86q10 0 17 6t11.5 27.5t6.5 63t3 113.5q-17 -20 -37.5 -32t-46.5 -12q-36 0 -61 16.5t-40.5 46.5t-22 72.5t-6.5 94.5q0 63 12.5 106.5t36.5 70.5t57.5 39t75.5 12q49 0 82.5 -19t54.5 -61.5t30 -109.5t9 -163q0 -114 -12.5 -186t-36 -112t-57 -54.5t-76.5 -14.5 t-71.5 15.5t-46.5 39.5t-27.5 52t-13.5 53l124 17q2 -35 10 -58t25 -23zM215 355q8 0 16.5 3.5t18.5 8.5q0 87 -3 136t-8 73t-12 29t-16 5t-15.5 -5t-10.5 -19t-5.5 -40.5t-1.5 -68.5q0 -39 1.5 -62.5t6 -37t11.5 -18t18 -4.5z" />
<glyph unicode=":" horiz-adv-x="225" d="M40 0v135h145v-135h-145zM40 405v135h145v-135h-145z" />
<glyph unicode=";" horiz-adv-x="225" d="M40 405v135h145v-135h-145zM185 1l-84 -163h-81l55 162h-35v135h145v-134z" />
<glyph unicode="&#x3c;" d="M40 259v120l340 147v-135l-212 -75l212 -75v-133z" />
<glyph unicode="=" d="M40 361v120h340v-120h-340zM40 171v120h340v-120h-340z" />
<glyph unicode="&#x3e;" d="M40 108v133l212 75l-212 75v135l340 -147v-120z" />
<glyph unicode="?" horiz-adv-x="400" d="M124 0v140h150v-140h-150zM200 632q-19 0 -27.5 -24.5t-10.5 -61.5l-137 17q4 25 14.5 55t31 56t53.5 43.5t83 17.5q36 0 66.5 -9t53 -31t35.5 -58.5t13 -91.5q0 -50 -16.5 -81t-37 -55t-37 -49t-16.5 -63v-57h-139v79q0 30 7.5 51.5t18.5 38.5t24.5 31.5t24.5 32 t18.5 39.5t7.5 54q0 39 -8 52.5t-22 13.5z" />
<glyph unicode="@" horiz-adv-x="783" d="M559 96q-40 0 -65.5 21t-33.5 54q-12 -31 -42 -53t-75 -22q-26 0 -47 8t-36 27.5t-23.5 51.5t-8.5 80q0 102 18.5 161.5t45 91t54.5 40.5t47 9q20 0 37.5 -6.5t28.5 -20.5l13 18h85l-26 -237q-2 -16 -4 -39.5t-2 -36.5q0 -20 2.5 -32t6.5 -18t9.5 -8t11.5 -2q27 0 48 48 t21 142q0 80 -12 132t-37.5 82t-64 42t-91.5 12q-48 0 -93.5 -16t-81.5 -54.5t-57.5 -102t-21.5 -158.5q0 -92 19.5 -152.5t51.5 -96t73.5 -50t85.5 -14.5q42 0 72 4.5t63 12.5v-88q-31 -8 -66 -15t-77 -7q-72 0 -135 25.5t-110 76t-74.5 127t-27.5 178.5q0 119 34 200 t88 131t121.5 71.5t135.5 21.5q157 0 240.5 -87t83.5 -271q0 -55 -13 -105.5t-37 -89.5t-58 -62.5t-76 -23.5zM411 479q-17 0 -29 -18t-20 -50t-12 -77t-4 -100q0 -32 6.5 -40.5t17.5 -8.5q32 0 37 55l22 233q-8 6 -18 6z" />
<glyph unicode="A" horiz-adv-x="490" d="M329 0l-26 167h-131l-27 -167h-143l159 720h165l162 -720h-159zM188 269h99l-48 316z" />
<glyph unicode="B" horiz-adv-x="471" d="M192 720q58 0 102.5 -8.5t74.5 -30.5t45 -58.5t15 -93.5q0 -54 -24.5 -94.5t-75.5 -54.5q25 -3 48 -15.5t40 -33.5t27 -51t10 -69q0 -58 -13.5 -98t-43 -65t-77 -36.5t-114.5 -11.5h-161v720h147zM195 328v-226h18q24 0 40.5 5t27 17.5t15 33.5t4.5 53q0 55 -16 86 t-66 31h-23zM195 618v-194h13q15 0 28 4t22.5 15.5t15.5 31t6 51.5q0 48 -18.5 70t-56.5 22h-10z" />
<glyph unicode="C" horiz-adv-x="452" d="M245 94q15 0 24.5 10t15.5 26.5t8.5 37.5t2.5 44l141 -15q-3 -32 -12.5 -69.5t-31.5 -69t-58.5 -52.5t-94.5 -21q-48 0 -86.5 15.5t-65 57.5t-41 115t-14.5 187q0 112 14.5 185t42 115t67.5 58.5t91 16.5q53 0 87 -20.5t54.5 -51t29.5 -65.5t12 -65l-139 -17 q-2 21 -4 40.5t-7 35.5t-13.5 25.5t-22.5 9.5q-17 0 -28 -12t-17 -42t-8 -82t-2 -131q0 -80 2 -131.5t8 -81.5t17 -41.5t28 -11.5z" />
<glyph unicode="D" horiz-adv-x="499" d="M207 720q61 0 109 -14t81.5 -53.5t51 -110t17.5 -182.5q0 -113 -18.5 -183t-52.5 -109.5t-81.5 -53.5t-104.5 -14h-164v720h162zM195 612v-503h14q27 0 46 9.5t32 36.5t19 76t6 129q0 79 -6 128.5t-19 77t-33 37t-47 9.5h-12z" />
<glyph unicode="E" horiz-adv-x="392" d="M335 309h-140v-196h170v-113h-320v720h320v-115h-170v-188h140v-108z" />
<glyph unicode="F" horiz-adv-x="379" d="M332 295h-137v-295h-150v720h317v-113h-167v-204h137v-108z" />
<glyph unicode="G" horiz-adv-x="467" d="M425 0h-75l-21 38q-16 -22 -42.5 -37.5t-68.5 -15.5q-39 0 -73 15.5t-59 57.5t-39 115t-14 187q0 112 15.5 185t44 115t69 58.5t90.5 16.5q46 0 78.5 -16t54 -41t33 -55.5t16.5 -59.5l-137 -17q-2 13 -4.5 27.5t-8 26.5t-13.5 20t-21 8q-16 0 -27 -12t-18.5 -42.5 t-11 -82.5t-3.5 -131q0 -80 1.5 -131.5t7.5 -81.5t17 -41.5t31 -11.5q19 0 30 7.5t19 20.5v192h-45v104h174v-418z" />
<glyph unicode="H" horiz-adv-x="500" d="M455 720v-720h-150v310h-110v-310h-150v720h150v-302h110v302h150z" />
<glyph unicode="I" horiz-adv-x="240" d="M195 720v-720h-150v720h150z" />
<glyph unicode="J" horiz-adv-x="319" d="M124 720h150v-518q0 -42 -4.5 -81t-21 -69t-49.5 -48.5t-90 -18.5q-28 0 -54.5 4.5t-44.5 10.5v107q36 -11 64 -11q14 0 23.5 3.5t15.5 14t8.5 30t2.5 51.5v525z" />
<glyph unicode="K" horiz-adv-x="504" d="M328 0l-133 297v-297h-150v720h150v-280l117 280h151l-159 -334l197 -386h-173z" />
<glyph unicode="L" horiz-adv-x="394" d="M195 720v-603h197v-117h-347v720h150z" />
<glyph unicode="M" horiz-adv-x="652" d="M267 0l-96 509v-509h-126v720h195l84 -492l83 492h200v-720h-137v509l-91 -509h-112z" />
<glyph unicode="N" horiz-adv-x="521" d="M476 720v-720h-188l-118 523v-523h-125v720h201l105 -516v516h125z" />
<glyph unicode="O" horiz-adv-x="489" d="M456 360q0 -105 -11.5 -176.5t-36.5 -115.5t-65.5 -63.5t-97.5 -19.5q-62 0 -103 19.5t-65 63.5t-34 115.5t-10 176.5t11.5 176.5t37 115.5t66 63.5t97.5 19.5t97.5 -19.5t65.5 -63.5t36.5 -115.5t11.5 -176.5zM303 360q0 76 -2 127t-8 82t-17.5 44t-30.5 13 q-20 0 -31.5 -13.5t-17.5 -44.5t-8 -82t-2 -126t2 -126t8.5 -82t18 -44t30.5 -13t30.5 13t17.5 43.5t8 81.5t2 127z" />
<glyph unicode="P" horiz-adv-x="461" d="M201 720q57 0 102.5 -9.5t77 -35.5t48.5 -72.5t17 -120.5t-16.5 -120.5t-47.5 -72.5t-75.5 -35.5t-99.5 -9.5h-12v-244h-150v720h156zM195 613v-262h14q19 0 34 5t25.5 19t16 39.5t5.5 67.5t-5 67.5t-15.5 39.5t-27 19t-39.5 5h-8z" />
<glyph unicode="Q" horiz-adv-x="489" d="M33 360q0 105 11.5 176.5t36.5 115.5t65.5 63.5t97.5 19.5t97.5 -19.5t66 -63.5t37 -115.5t11.5 -176.5q0 -164 -29.5 -250.5t-99.5 -108.5l129 -16v-118l-244 67v53q-48 5 -82 27.5t-55.5 67t-31.5 113t-10 165.5zM186 360q0 -76 2 -127t8 -81.5t17.5 -43.5t30.5 -13 t30.5 13t18 44t8.5 82t2 126t-2 126t-8 82t-18 44.5t-31 13.5q-20 0 -31.5 -13t-17.5 -44t-7.5 -82t-1.5 -127z" />
<glyph unicode="R" horiz-adv-x="484" d="M312 0l-103 267h-14v-267h-150v720h158q57 0 101.5 -11.5t75 -38t46 -69.5t15.5 -107q0 -76 -26 -121.5t-74 -71.5l138 -301h-167zM195 612v-238h16q37 0 55.5 25.5t18.5 94.5q0 37 -4.5 60.5t-14 36t-25 17t-36.5 4.5h-10z" />
<glyph unicode="S" horiz-adv-x="426" d="M211 626q-20 0 -32 -17t-12 -53q0 -18 3.5 -33t15 -30t32.5 -30t56 -33q34 -18 58 -39.5t39.5 -49t22.5 -63t7 -81.5q0 -100 -48.5 -156t-145.5 -56q-52 0 -87 17.5t-57 44.5t-33 58.5t-15 59.5l141 20q2 -36 13.5 -63t38.5 -27q19 0 31.5 18t12.5 70q0 27 -4 45t-16 33 t-33 29.5t-54 33.5q-60 34 -92.5 82.5t-32.5 126.5q0 44 13 81t37.5 64t60.5 42t82 15q48 0 81 -16t54.5 -41t33 -55.5t16.5 -58.5l-139 -25q-5 38 -14 62.5t-34 24.5z" />
<glyph unicode="T" horiz-adv-x="400" d="M395 603h-121v-603h-150v603h-119v117h390v-117z" />
<glyph unicode="U" horiz-adv-x="477" d="M195 720v-502q0 -37 2.5 -61t7.5 -37.5t14 -19t22 -5.5t22 5.5t14.5 19t8 37.5t2.5 61v502h144v-493q0 -59 -9 -104t-31 -75.5t-59 -46.5t-93 -16t-93.5 16t-60 46.5t-32 75.5t-9.5 104v493h150z" />
<glyph unicode="V" horiz-adv-x="475" d="M470 720l-145 -720h-179l-141 720h154l82 -594l86 594h143z" />
<glyph unicode="W" horiz-adv-x="638" d="M628 720l-77 -720h-186l-47 595l-49 -595h-182l-77 720h143l37 -590l49 590h167l47 -588l43 588h132z" />
<glyph unicode="X" horiz-adv-x="474" d="M317 391l152 -391h-169l-70 242l-81 -242h-144l151 381l-136 339h164l61 -194l66 194h142z" />
<glyph unicode="Y" horiz-adv-x="452" d="M452 720l-154 -432v-288h-144v288l-154 432h162l68 -287l82 287h140z" />
<glyph unicode="Z" horiz-adv-x="400" d="M163 109h217v-109h-370v117l226 494h-203v109h357v-114z" />
<glyph unicode="[" horiz-adv-x="300" d="M270 -170h-220v980h220v-103h-87v-774h87v-103z" />
<glyph unicode="\" horiz-adv-x="265" d="M-55 730h125l195 -820h-125z" />
<glyph unicode="]" horiz-adv-x="300" d="M30 -67h87v774h-87v103h220v-980h-220v103z" />
<glyph unicode="^" d="M147 720h130l123 -320h-130l-59 222l-61 -222h-130z" />
<glyph unicode="_" horiz-adv-x="410" d="M-2 -150v118h414v-118h-414z" />
<glyph unicode="`" horiz-adv-x="292" d="M262 598h-105l-127 137h152z" />
<glyph unicode="a" horiz-adv-x="400" d="M276 0l-28 51q-17 -26 -45 -42.5t-70 -16.5q-27 0 -49 9t-37 28.5t-23.5 51t-8.5 77.5q0 37 7 69t24.5 56.5t46.5 40.5t74 21l58 6v40q0 39 -6 54t-21 15t-21 -18t-8 -48l-135 20q5 22 15.5 47t30 46t50.5 34.5t78 13.5q86 0 121.5 -46t35.5 -143v-366h-89zM192 91 q7 0 15.5 2t17.5 7v169l-25 -3q-23 -3 -33 -24t-10 -66q0 -52 9.5 -68.5t25.5 -16.5z" />
<glyph unicode="b" horiz-adv-x="408" d="M35 0v735h140v-233q20 24 43 38.5t51 14.5q30 0 51.5 -12t35.5 -43t20.5 -85.5t6.5 -139.5q0 -74 -6.5 -128t-22 -89t-42.5 -51.5t-69 -16.5q-31 0 -54.5 14t-37.5 35l-31 -39h-85zM211 446q-8 0 -16.5 -3.5t-19.5 -8.5v-354q12 -4 27 -4q14 0 22 8.5t12.5 31.5t5.5 62.5 t1 101.5q0 53 -1 85.5t-4.5 50.5t-10 24t-16.5 6z" />
<glyph unicode="c" horiz-adv-x="386" d="M205 457q-10 0 -16.5 -6t-10.5 -25.5t-6 -56t-2 -97.5t2 -97t6 -55.5t10.5 -25.5t15.5 -6q11 0 18 9t10.5 22.5t4.5 30.5t1 34l138 -16q-3 -29 -12 -60.5t-28.5 -57.5t-52 -43t-81.5 -17q-41 0 -73.5 13t-55.5 45.5t-35.5 87.5t-12.5 139q0 146 41 213t135 67 q52 0 84 -18t50 -44t25 -57t10 -56l-133 -20q-2 48 -8.5 72.5t-23.5 24.5z" />
<glyph unicode="d" horiz-adv-x="412" d="M25 270q0 74 7 128t23.5 89t44 51.5t69.5 16.5q39 0 68 -24v204h140v-735h-95l-32 57q-21 -29 -46 -48t-57 -19q-30 0 -52.5 12t-38 43t-23.5 85.5t-8 139.5zM203 99q14 0 34 11v354q-20 5 -29 5q-14 0 -22.5 -8.5t-13 -31.5t-6 -62.5t-1.5 -101.5q0 -53 2 -85.5 t6.5 -50.5t11.5 -24t18 -6z" />
<glyph unicode="e" horiz-adv-x="392" d="M204 91q16 0 23.5 17.5t10.5 49.5l128 -20q-3 -23 -13 -48.5t-29.5 -48t-49.5 -37t-73 -14.5q-93 0 -134.5 66.5t-41.5 213.5q0 79 10.5 133.5t32 88t54 48.5t77.5 15q60 0 93.5 -22.5t50 -64.5t20.5 -102.5t4 -136.5h-201q1 -45 3.5 -72.5t7 -42t11.5 -19t16 -4.5z M203 465q-9 0 -16 -5t-11.5 -20t-7 -43.5t-2.5 -75.5h73q0 46 -2.5 74.5t-7 44t-11 20.5t-15.5 5z" />
<glyph unicode="f" horiz-adv-x="262" d="M292 629q-15 5 -30 7.5t-27 2.5q-26 0 -35.5 -10.5t-9.5 -42.5v-46h81v-100h-81v-440h-140v440h-50v100h50v40q0 47 10.5 79t29 51t45.5 27t60 8q34 0 57.5 -5t39.5 -10v-101z" />
<glyph unicode="g" horiz-adv-x="410" d="M392 513l-85 2q27 -23 44 -61.5t17 -92.5q0 -93 -41.5 -141.5t-131.5 -48.5q-13 0 -25.5 1t-24.5 3q-1 -5 -1.5 -9.5t-0.5 -9.5q0 -17 10.5 -24.5t46.5 -9.5q95 -6 145.5 -42.5t50.5 -123.5q0 -38 -15.5 -67t-43 -48t-65 -28.5t-80.5 -9.5q-81 0 -131.5 33.5t-50.5 96.5 q0 62 63 103q-32 29 -32 78q0 27 11.5 47.5t34.5 37.5q-30 20 -48 59t-18 103q0 107 45 150.5t131 43.5q16 0 33 -3v34l162 29v-102zM165 5q-15 0 -28 3q-12 -21 -12 -50q0 -43 20 -59.5t46 -16.5q10 0 21.5 2.5t22 9.5t17.5 19t7 32q0 12 -3 22t-13 18t-28.5 13t-49.5 7z M159 361q0 -31 2 -50t6.5 -30t11 -15t16.5 -4t17 4t11 15t5.5 30.5t1.5 49.5q0 62 -7 83t-28 21t-28.5 -21.5t-7.5 -82.5z" />
<glyph unicode="h" horiz-adv-x="423" d="M35 0v735h140v-226q21 21 46.5 33.5t56.5 12.5q28 0 49 -9.5t34.5 -31.5t20 -58t6.5 -88v-368h-140v378q0 43 -8.5 55.5t-29.5 12.5q-15 0 -35 -11v-435h-140z" />
<glyph unicode="i" horiz-adv-x="210" d="M29 610v125h152v-125h-152zM35 0v540h140v-540h-140z" />
<glyph unicode="j" horiz-adv-x="210" d="M29 610v125h152v-125h-152zM-55 -50q11 -3 26 -5.5t24 -2.5q21 0 30.5 9t9.5 42v547h140v-550q0 -79 -33.5 -117t-105.5 -38q-23 0 -49 4.5t-42 10.5v100z" />
<glyph unicode="k" horiz-adv-x="404" d="M35 0v735h140v-393l71 198h138l-104 -226l124 -314h-154l-75 251v-251h-140z" />
<glyph unicode="l" horiz-adv-x="210" d="M35 735h140v-735h-140v735z" />
<glyph unicode="m" horiz-adv-x="610" d="M35 0v540h95l24 -52q23 30 51.5 48.5t64.5 18.5q33 0 54.5 -13.5t33.5 -43.5q21 26 48.5 41.5t63.5 15.5q28 0 48 -9.5t33 -31.5t18.5 -58t5.5 -88v-368h-140v378q0 22 -1 35t-4.5 20.5t-10 10t-16.5 2.5q-14 0 -31 -10q3 -30 3 -68v-368h-140v378q0 22 -1 35t-4.5 20.5 t-10 10t-16.5 2.5t-28 -8v-438h-140z" />
<glyph unicode="n" horiz-adv-x="423" d="M35 0v540h95l25 -53q23 30 54 49t69 19q28 0 49 -9.5t34.5 -31.5t20 -58t6.5 -88v-368h-140v378q0 43 -8.5 55.5t-29.5 12.5q-15 0 -35 -11v-435h-140z" />
<glyph unicode="o" horiz-adv-x="419" d="M25 270q0 83 13.5 138t38.5 87.5t58.5 46t74.5 13.5q40 0 74 -13t58.5 -45.5t38 -87.5t13.5 -139t-13.5 -138t-38 -85.5t-58.5 -44t-74 -12.5q-41 0 -74.5 12.5t-58.5 44.5t-38.5 86t-13.5 137zM169 270q0 -57 2 -92.5t7 -56t13 -27.5t20 -7t19.5 7t12 27t6.5 55.5 t2 93.5t-2 94.5t-7 57t-13 28t-19 7.5t-19 -8t-13 -28.5t-7 -57t-2 -93.5z" />
<glyph unicode="p" horiz-adv-x="405" d="M35 -170v710h95l25 -54q23 31 51 50t60 19q30 0 51.5 -12t35.5 -43t20.5 -85.5t6.5 -139.5q0 -74 -6.5 -128t-22 -89t-42.5 -51.5t-69 -16.5q-38 0 -65 21v-181h-140zM208 446q-13 0 -33 -11v-356q12 -3 24 -3q14 0 22 8.5t12.5 31.5t5.5 62.5t1 101.5q0 53 -1 85.5 t-4.5 50.5t-10 24t-16.5 6z" />
<glyph unicode="q" horiz-adv-x="406" d="M25 270q0 74 7 128t23.5 89t44 51.5t69.5 16.5q29 0 52.5 -13.5t37.5 -33.5l27 32h85v-710h-140v203q-18 -20 -39 -31.5t-45 -11.5q-30 0 -52.5 12t-38 43t-23.5 85.5t-8 139.5zM203 99q12 0 28 8v359q-14 3 -23 3q-14 0 -22.5 -8.5t-13 -31.5t-6 -62.5t-1.5 -101.5 q0 -53 2 -85.5t6.5 -50.5t11.5 -24t18 -6z" />
<glyph unicode="r" horiz-adv-x="287" d="M35 0v540h95l26 -68q15 36 37.5 57t52.5 21q19 0 31 -4v-137q-9 4 -18 6t-23 2q-20 0 -35 -11.5t-26 -29.5v-376h-140z" />
<glyph unicode="s" horiz-adv-x="373" d="M183 -10q-41 0 -71 12.5t-50.5 32t-33 43t-18.5 45.5l135 27q2 -26 11.5 -43.5t27.5 -17.5q17 0 25 14.5t8 39.5q0 17 -4.5 28.5t-15.5 20.5t-29 18.5t-45 22.5q-49 23 -76 61t-27 98q0 41 13 71.5t35.5 51t54 30.5t67.5 10q45 0 74 -12.5t47.5 -32t28.5 -42t16 -43.5 l-131 -26q-2 26 -8.5 42t-23.5 16q-33 0 -33 -49q0 -23 15 -39t57 -33q26 -11 49 -25t40 -33.5t27 -46.5t10 -64q0 -84 -43.5 -130.5t-131.5 -46.5z" />
<glyph unicode="t" horiz-adv-x="273" d="M267 5q-19 -6 -40.5 -9t-40.5 -3q-69 0 -101.5 35.5t-32.5 120.5v291h-52v100h53l9 130h130v-130h76v-100h-76v-296q0 -32 7.5 -40t25.5 -8q11 0 22.5 2t19.5 4v-97z" />
<glyph unicode="u" d="M175 540v-373q0 -22 1.5 -35t5.5 -20.5t10.5 -10t16.5 -2.5q12 0 36 11v430h140v-540h-105l-19 51q-20 -27 -46.5 -44t-60.5 -17q-63 0 -91 41t-28 137v372h140z" />
<glyph unicode="v" horiz-adv-x="402" d="M402 540l-114 -540h-182l-106 540h153l50 -420l55 420h144z" />
<glyph unicode="w" horiz-adv-x="584" d="M577 540l-86 -540h-157l-41 410l-55 -410h-159l-72 540h142l20 -439l56 439h145l46 -438l32 438h129z" />
<glyph unicode="x" horiz-adv-x="426" d="M290 298l131 -298h-165l-53 179l-52 -179h-146l120 285l-107 255h157l37 -143l35 143h141z" />
<glyph unicode="y" horiz-adv-x="401" d="M282 -15q-17 -81 -56 -115.5t-99 -34.5q-37 0 -70 11v100q29 -8 49 -8t34 13.5t19 48.5h-46l-113 540h153l46 -428l63 428h139z" />
<glyph unicode="z" horiz-adv-x="346" d="M159 106h162v-106h-311v117l176 317h-157v106h302v-117z" />
<glyph unicode="{" horiz-adv-x="300" d="M20 378q36 0 46 23t10 65v157q0 62 13 99t38 56.5t62.5 25.5t85.5 6v-98q-18 0 -31 -2.5t-21 -11t-12 -24t-4 -41.5v-165q0 -35 -3.5 -60t-12 -42t-22.5 -28t-35 -18q42 -14 57.5 -46.5t15.5 -101.5v-165q0 -26 4 -41.5t12 -24t21 -11t31 -2.5v-98q-48 0 -85.5 6 t-62.5 25.5t-38 56.5t-13 99v157q0 42 -10 65.5t-46 23.5v115z" />
<glyph unicode="|" horiz-adv-x="280" d="M206 800v-920h-132v920h132z" />
<glyph unicode="}" horiz-adv-x="300" d="M280 263q-36 0 -46 -23.5t-10 -65.5v-157q0 -62 -13 -99t-38 -56.5t-62.5 -25.5t-85.5 -6v98q18 0 31 2.5t21 11t12 24t4 41.5v165q0 69 15.5 101.5t57.5 46.5q-21 7 -35 18t-22.5 28t-12 42t-3.5 60v165q0 26 -4 41.5t-12 24t-21 11t-31 2.5v98q48 0 85.5 -6t62.5 -25.5 t38 -56.5t13 -99v-157q0 -42 10 -65t46 -23v-115z" />
<glyph unicode="~" d="M130 290q-29 0 -48.5 -12t-41.5 -31v118q19 15 45.5 27.5t54.5 12.5q27 0 46.5 -8.5t36 -18t32 -18t35.5 -8.5q29 0 48.5 12t41.5 31v-118q-19 -15 -45.5 -27.5t-54.5 -12.5q-27 0 -46.5 8.5t-36 18t-32 18t-35.5 8.5z" />
<glyph unicode="&#xa1;" horiz-adv-x="220" d="M185 540v-140h-150v140h150zM168 300l15 -480h-146l15 480h116z" />
<glyph unicode="&#xa2;" d="M166 -5q-31 6 -55 24t-41 51t-26 83.5t-9 121.5q0 127 30.5 194t100.5 81v120h102v-122q33 -9 54 -28.5t33 -43.5t17.5 -49.5t7.5 -46.5l-133 -20q-2 48 -8.5 72.5t-23.5 24.5q-10 0 -16.5 -6t-10.5 -25.5t-6 -56t-2 -97.5t2 -97t6 -55.5t10.5 -25.5t15.5 -6q11 0 18 9 t10.5 22.5t4.5 30.5t1 34l138 -16q-3 -24 -9.5 -50.5t-20 -50t-35 -42t-53.5 -27.5v-113h-102v110z" />
<glyph unicode="&#xa3;" d="M352 329h-116v-123q0 -27 -11 -52.5t-39 -43.5h201v-110h-372v110q24 0 39 10t23.5 24t11 29.5t2.5 26.5v129h-76v105h76v30q0 58 8 104t28 77.5t54 48t85 16.5q34 0 60.5 -12t44.5 -31.5t29 -44.5t15 -52l-128 -24q-2 29 -7 44t-17 15q-7 0 -12 -4t-8.5 -18.5t-5 -42.5 t-1.5 -76v-30h116v-105z" />
<glyph unicode="&#xa4;" horiz-adv-x="560" d="M91 223q-17 51 -17 117q0 67 16 114l-62 62l74 74l43 -44q28 26 62 37.5t72 11.5t72 -12t62 -38l45 45l74 -74l-64 -64q7 -24 11 -52t4 -60q0 -68 -16 -115l65 -65l-74 -74l-49 48q-27 -23 -60.5 -33.5t-69.5 -10.5t-69.5 10t-60.5 33l-47 -47l-74 74zM200 340 q0 -45 5.5 -74.5t16 -47t25.5 -24.5t33 -7t32.5 7t24.5 24.5t15.5 47t5.5 74.5t-5.5 75t-16 48t-25 26t-32.5 8t-32.5 -8t-25 -26t-16 -48t-5.5 -75z" />
<glyph unicode="&#xa5;" d="M142 0v120h-100v93h100v64h-100v93h85l-118 330h148l59 -261l64 261h131l-116 -330h87v-93h-100v-64h100v-93h-100v-120h-140z" />
<glyph unicode="&#xa6;" horiz-adv-x="280" d="M206 800v-390h-132v390h132zM206 270v-390h-132v390h132z" />
<glyph unicode="&#xa7;" d="M205 -94q-38 0 -66.5 13t-49 32.5t-33.5 43t-19 44.5l130 27q2 -26 11 -43.5t29 -17.5q37 0 37 54q0 18 -7 31t-19 22.5t-27.5 17t-32.5 14.5q-60 24 -86.5 64.5t-26.5 98.5q0 38 16.5 69.5t45.5 51.5q-27 23 -42.5 54.5t-15.5 68.5q0 41 15.5 71t39.5 49.5t53.5 29 t58.5 9.5q42 0 71 -12.5t48 -32t30 -42t17 -43.5l-126 -26q-2 26 -10.5 42t-26.5 16q-17 0 -25.5 -12t-8.5 -40q0 -32 15 -49.5t46 -29.5q29 -12 54 -26.5t43 -34.5t28.5 -46t10.5 -61q0 -39 -15 -71t-44 -54q26 -21 41.5 -48.5t15.5 -61.5q0 -33 -10.5 -64t-32 -55 t-54.5 -38.5t-78 -14.5zM251 289q0 25 -15.5 48t-38.5 40q-10 -5 -16 -16.5t-6 -30.5q0 -27 14.5 -51t37.5 -38q24 13 24 48z" />
<glyph unicode="&#xa8;" horiz-adv-x="419" d="M50 613v112h130v-112h-130zM239 613v112h130v-112h-130z" />
<glyph unicode="&#xa9;" horiz-adv-x="703" d="M30 360q0 105 26 176.5t70 115.5t102 63.5t123 19.5q64 0 122.5 -19.5t103 -63.5t70.5 -115.5t26 -176.5t-26 -176.5t-70.5 -115.5t-103 -63.5t-122.5 -19.5q-65 0 -123 19.5t-102 63.5t-70 115.5t-26 176.5zM149 360q0 -76 14.5 -129.5t41 -88t64 -50.5t82.5 -16 t82.5 16t64.5 50.5t41.5 88.5t14.5 129q0 81 -14.5 135.5t-41.5 88t-64.5 47.5t-82.5 14t-82.5 -14.5t-64 -47.5t-41 -87.5t-14.5 -135.5zM355 228q17 0 24.5 16t8.5 41l91 -9q-2 -18 -8.5 -39t-20.5 -39t-38 -30.5t-61 -12.5q-31 0 -56 8.5t-42 31.5t-26.5 63t-9.5 103 q0 62 9 102t27 63t44 32t59 9q34 0 56 -12t35.5 -29.5t19.5 -38t8 -36.5l-90 -9q-2 23 -7.5 38t-22.5 15q-11 0 -18 -5.5t-11 -20t-5.5 -40.5t-1.5 -68q0 -40 1.5 -65.5t5.5 -40.5t11 -21t18 -6z" />
<glyph unicode="&#xaa;" horiz-adv-x="400" d="M259 318l-23 40q-14 -20 -36.5 -33t-55.5 -13q-21 0 -40 6.5t-33.5 21.5t-22.5 38.5t-8 58.5q0 57 30 94.5t102 45.5l46 5v30q0 29 -6 37t-16 8q-20 0 -23 -43l-111 15q4 16 13 35t25 34.5t41.5 26t62.5 10.5q69 0 102.5 -33.5t33.5 -108.5v-275h-81zM60 0v115h300v-115 h-300zM192 393q13 0 26 7v121l-20 -2q-34 -4 -34 -69q0 -39 7 -48t21 -9z" />
<glyph unicode="&#xab;" horiz-adv-x="460" d="M30 326l115 205h90l-72 -208l62 -222h-90zM215 326l115 205h90l-72 -208l62 -222h-90z" />
<glyph unicode="&#xac;" d="M252 141v120h-212v121h340v-241h-128z" />
<glyph unicode="&#xad;" horiz-adv-x="300" d="M30 261v121h240v-121h-240z" />
<glyph unicode="&#xae;" horiz-adv-x="541" d="M50 493q0 67 18.5 113.5t49.5 75t70 41t81 12.5t82 -12.5t71 -41t50 -75t19 -113.5t-19 -113t-50 -74t-71 -40.5t-82 -12.5t-81 12.5t-70 40.5t-49.5 74t-18.5 113zM129 493q0 -48 11 -82t30 -55t44.5 -30.5t54.5 -9.5q30 0 56 9.5t45.5 30.5t30.5 55t11 82q0 52 -11 87 t-30.5 55.5t-45.5 29t-56 8.5q-29 0 -54.5 -8.5t-44.5 -29.5t-30 -55.5t-11 -86.5zM297 373l-35 89h-8v-89h-62v255h67q48 0 73.5 -18.5t25.5 -63.5q0 -27 -10 -43.5t-28 -26.5l42 -103h-65zM254 580v-69h7q31 0 31 35q0 34 -33 34h-5z" />
<glyph unicode="&#xaf;" horiz-adv-x="330" d="M30 631v104h270v-104h-270z" />
<glyph unicode="&#xb0;" horiz-adv-x="365" d="M30 546q0 35 10 65t29.5 52t48 34.5t65.5 12.5t65 -12.5t47.5 -34.5t29.5 -52t10 -65t-10 -65t-29.5 -51.5t-47.5 -33.5t-65 -12t-65.5 12t-48 33.5t-29.5 51.5t-10 65zM138 546q0 -81 45 -81q22 0 33.5 21t11.5 60t-11 61t-34 22t-34 -21.5t-11 -61.5z" />
<glyph unicode="&#xb1;" d="M146 261h-116v120h116v130h128v-130h116v-120h-116v-95h-128v95zM40 0v120h340v-120h-340z" />
<glyph unicode="&#xb2;" horiz-adv-x="300" d="M149 736q-14 0 -19.5 -11.5t-8.5 -31.5l-92 9q2 16 10 35t23.5 35.5t38 27t54.5 10.5q49 0 82 -24.5t33 -86.5q0 -29 -13 -62t-51 -81l-43 -55h99v-81h-224v81l89 106q26 31 35.5 49.5t9.5 41.5q0 21 -6 29.5t-17 8.5z" />
<glyph unicode="&#xb3;" horiz-adv-x="300" d="M148 487q25 0 25 42q0 22 -3 34.5t-8.5 18t-14 6.5t-19.5 1h-20v66h25q13 0 22 11.5t9 36.5q0 34 -21 34q-14 0 -19 -11t-6 -25l-90 9q7 43 39.5 71.5t78.5 28.5q24 0 45 -5t36.5 -17t25 -33t9.5 -52q0 -23 -14 -47t-44 -29q32 -5 50 -25q18 -23 18 -71q0 -32 -10 -54.5 t-26.5 -36.5t-39 -20t-47.5 -6q-28 0 -49 9t-35 23t-22.5 32t-11.5 36l90 9q2 -12 6 -24t21 -12z" />
<glyph unicode="&#xb4;" horiz-adv-x="292" d="M110 735h152l-127 -137h-105z" />
<glyph unicode="&#xb5;" d="M175 540v-373q0 -22 1.5 -35t5.5 -20.5t10.5 -10t16.5 -2.5q12 0 36 11v430h140v-540h-105l-15 39q-14 -21 -31 -33.5t-40 -12.5q-10 0 -19 4v-167h-140v710h140z" />
<glyph unicode="&#xb6;" horiz-adv-x="480" d="M277 700v-700h-116v375q-19 0 -43.5 3.5t-46 19.5t-36.5 48.5t-15 90.5q0 55 15 87t36.5 49t46 22t43.5 5h116zM440 700v-700h-116v700h116z" />
<glyph unicode="&#xb7;" horiz-adv-x="255" d="M55 252v135h145v-135h-145z" />
<glyph unicode="&#xb8;" horiz-adv-x="300" d="M270 -142q0 -51 -33 -81t-96 -30q-31 0 -59.5 8.5t-51.5 23.5l37 68q9 -6 23.5 -11.5t32.5 -5.5q23 0 33 11t10 23q0 38 -73 45l40 151h77l-12 -111q38 -11 55 -36.5t17 -54.5z" />
<glyph unicode="&#xb9;" horiz-adv-x="300" d="M46 420v73h67v221l-73 -46v86l69 46h96v-307h54v-73h-213z" />
<glyph unicode="&#xba;" horiz-adv-x="395" d="M40 521q0 62 11.5 103.5t32.5 66t50 34.5t64 10t64 -10t49.5 -34.5t32 -65.5t11.5 -104t-11.5 -103.5t-32 -64.5t-49.5 -33t-64 -9t-64 9.5t-50 33.5t-32.5 64.5t-11.5 102.5zM165 521q0 -41 2 -66.5t6 -39.5t10.5 -19.5t15.5 -5.5t15.5 5.5t10 19.5t5 39.5t1.5 66.5 q0 40 -2 66t-5.5 41t-10 20.5t-15.5 5.5t-15.5 -5.5t-10 -20.5t-5.5 -41t-2 -66zM57 0v115h288v-115h-288z" />
<glyph unicode="&#xbb;" horiz-adv-x="460" d="M325 101h-90l62 222l-72 208h90l115 -205zM140 101h-90l62 222l-72 208h90l115 -205z" />
<glyph unicode="&#xbc;" horiz-adv-x="720" d="M62 321v73h67v221l-73 -46v86l69 46h96v-307h54v-73h-213zM261 -100h-108l340 910h108zM628 241v-95h36v-74h-36v-71h-89v71h-124v78l74 231h92l-74 -235h38l11 95h72z" />
<glyph unicode="&#xbd;" horiz-adv-x="720" d="M553 317q-14 0 -19.5 -11.5t-8.5 -31.5l-92 9q2 16 10 35t23.5 35.5t38 27t54.5 10.5q49 0 82 -24.5t33 -86.5q0 -29 -13 -62t-51 -81l-43 -55h99v-81h-224v81l89 106q26 31 35.5 49.5t9.5 41.5q0 21 -6 29.5t-17 8.5zM250 -100h-108l340 910h108zM51 321v73h67v221 l-73 -46v86l69 46h96v-307h54v-73h-213z" />
<glyph unicode="&#xbe;" horiz-adv-x="720" d="M171 388q25 0 25 42q0 22 -3 34.5t-8.5 18t-14 6.5t-19.5 1h-20v66h25q13 0 22 11.5t9 36.5q0 34 -21 34q-14 0 -19 -11t-6 -25l-90 9q7 43 39.5 71.5t78.5 28.5q24 0 45 -5t36.5 -17t25 -33t9.5 -52q0 -23 -14 -47t-44 -29q32 -5 50 -25q18 -23 18 -71q0 -32 -10 -54.5 t-26.5 -36.5t-39 -20t-47.5 -6q-28 0 -49 9t-35 23t-22.5 32t-11.5 36l90 9q2 -12 6 -24t21 -12zM260 -100h-108l340 910h108zM632 241v-95h36v-74h-36v-71h-89v71h-124v78l74 231h92l-74 -235h38l11 95h72z" />
<glyph unicode="&#xbf;" horiz-adv-x="400" d="M276 540v-140h-150v140h150zM200 -92q19 0 27.5 24.5t10.5 61.5l137 -17q-4 -25 -14.5 -55t-31 -56t-53.5 -43.5t-83 -17.5q-36 0 -66.5 9t-53 31t-35.5 58.5t-13 91.5q0 50 16.5 81t37 55t37 49t16.5 63v57h139v-79q0 -31 -7.5 -52t-18.5 -38t-24.5 -31.5t-24.5 -32 t-18.5 -39.5t-7.5 -54q0 -39 8 -52.5t22 -13.5z" />
<glyph unicode="&#xc0;" horiz-adv-x="490" d="M329 0l-26 167h-131l-27 -167h-143l159 720h165l162 -720h-159zM188 269h99l-48 316zM346 768h-110l-122 117h152z" />
<glyph unicode="&#xc1;" horiz-adv-x="490" d="M329 0l-26 167h-131l-27 -167h-143l159 720h165l162 -720h-159zM188 269h99l-48 316zM217 885h152l-122 -117h-110z" />
<glyph unicode="&#xc2;" horiz-adv-x="490" d="M329 0l-26 167h-131l-27 -167h-143l159 720h165l162 -720h-159zM188 269h99l-48 316zM403 768h-125l-38 37l-38 -37h-125l105 117h116z" />
<glyph unicode="&#xc3;" horiz-adv-x="490" d="M329 0l-26 167h-131l-27 -167h-143l159 720h165l162 -720h-159zM188 269h99l-48 316zM302 765q-24 0 -41 6t-31 13t-27.5 13t-30.5 6q-33 0 -78 -36v95q22 16 41.5 24.5t40.5 8.5q24 0 41 -6t31 -13t27.5 -13t30.5 -6q33 0 78 36v-95q-22 -16 -41.5 -24.5t-40.5 -8.5z " />
<glyph unicode="&#xc4;" horiz-adv-x="490" d="M329 0l-26 167h-131l-27 -167h-143l159 720h165l162 -720h-159zM188 269h99l-48 316zM80 773v102h130v-102h-130zM269 773v102h130v-102h-130z" />
<glyph unicode="&#xc5;" horiz-adv-x="490" d="M117 811q0 57 32.5 88t95.5 31t95 -31t32 -88q0 -32 -12 -56t-34 -38l162 -717h-159l-26 167h-131l-27 -167h-143l158 714q-43 30 -43 97zM188 269h99l-48 316zM215 811q0 -46 30 -46t30 46q0 48 -30 48t-30 -48z" />
<glyph unicode="&#xc6;" horiz-adv-x="643" d="M576 309h-147l21 -196h166v-113h-295l-15 167h-127l-36 -167h-141l194 720h404v-115h-204l21 -188h159v-108zM201 269h96l-28 316z" />
<glyph unicode="&#xc7;" horiz-adv-x="452" d="M349 -142q0 -51 -32 -81t-99 -30q-31 0 -59.5 8.5t-51.5 23.5l37 71q9 -6 23.5 -11.5t32.5 -5.5q23 0 31.5 9.5t8.5 21.5q0 20 -17 29t-53 13l21 83q-37 7 -66.5 29t-49.5 65t-31 110.5t-11 166.5q0 112 14.5 185t42 115t67.5 58.5t91 16.5q53 0 87 -20.5t54.5 -51 t29.5 -65.5t12 -65l-139 -17q-2 21 -4 40.5t-7 35.5t-13.5 25.5t-22.5 9.5q-17 0 -28 -12t-17 -42t-8 -82t-2 -131q0 -80 2 -131.5t8 -81.5t17 -41.5t28 -11.5q15 0 24.5 10t15.5 26.5t8.5 37.5t2.5 44l141 -15q-3 -29 -11 -62.5t-25.5 -63.5t-46.5 -53t-74 -30l-4 -39 q38 -11 55.5 -36.5t17.5 -54.5z" />
<glyph unicode="&#xc8;" horiz-adv-x="392" d="M335 309h-140v-196h170v-113h-320v720h320v-115h-170v-188h140v-108zM292 768h-110l-122 117h152z" />
<glyph unicode="&#xc9;" horiz-adv-x="392" d="M335 309h-140v-196h170v-113h-320v720h320v-115h-170v-188h140v-108zM198 888h152l-122 -117h-110z" />
<glyph unicode="&#xca;" horiz-adv-x="392" d="M335 309h-140v-196h170v-113h-320v720h320v-115h-170v-188h140v-108zM370 768h-125l-38 37l-38 -37h-125l105 117h116z" />
<glyph unicode="&#xcb;" horiz-adv-x="392" d="M335 309h-140v-196h170v-113h-320v720h320v-115h-170v-188h140v-108zM44 773v102h130v-102h-130zM233 773v102h130v-102h-130z" />
<glyph unicode="&#xcc;" horiz-adv-x="240" d="M195 720v-720h-150v720h150zM215 768h-110l-122 117h152z" />
<glyph unicode="&#xcd;" horiz-adv-x="240" d="M195 720v-720h-150v720h150zM98 885h152l-122 -117h-110z" />
<glyph unicode="&#xce;" horiz-adv-x="240" d="M195 720v-720h-150v720h150zM284 768h-125l-38 37l-38 -37h-125l105 117h116z" />
<glyph unicode="&#xcf;" horiz-adv-x="240" d="M195 720v-720h-150v720h150zM-39 773v102h130v-102h-130zM150 773v102h130v-102h-130z" />
<glyph unicode="&#xd0;" horiz-adv-x="509" d="M55 336h-45v110h45v274h162q61 0 109 -14t81.5 -53.5t51 -110t17.5 -182.5q0 -113 -18.5 -183t-52.5 -109.5t-81.5 -53.5t-104.5 -14h-164v336zM205 336v-227h14q27 0 46 9.5t32 36.5t19 76t6 129q0 79 -6 128.5t-19 77t-33 37t-47 9.5h-12v-166h60v-110h-60z" />
<glyph unicode="&#xd1;" horiz-adv-x="521" d="M476 720v-720h-188l-118 523v-523h-125v720h201l105 -516v516h125zM324 765q-24 0 -41 6t-31 13t-27.5 13t-30.5 6q-33 0 -78 -36v95q22 16 41.5 24.5t40.5 8.5q24 0 41 -6t31 -13t27.5 -13t30.5 -6q33 0 78 36v-95q-22 -16 -41.5 -24.5t-40.5 -8.5z" />
<glyph unicode="&#xd2;" horiz-adv-x="489" d="M456 360q0 -105 -11.5 -176.5t-36.5 -115.5t-65.5 -63.5t-97.5 -19.5q-62 0 -103 19.5t-65 63.5t-34 115.5t-10 176.5t11.5 176.5t37 115.5t66 63.5t97.5 19.5t97.5 -19.5t65.5 -63.5t36.5 -115.5t11.5 -176.5zM303 360q0 76 -2 127t-8 82t-17.5 44t-30.5 13 q-20 0 -31.5 -13.5t-17.5 -44.5t-8 -82t-2 -126t2 -126t8.5 -82t18 -44t30.5 -13t30.5 13t17.5 43.5t8 81.5t2 127zM308 768h-110l-122 117h152z" />
<glyph unicode="&#xd3;" horiz-adv-x="489" d="M456 360q0 -105 -11.5 -176.5t-36.5 -115.5t-65.5 -63.5t-97.5 -19.5q-62 0 -103 19.5t-65 63.5t-34 115.5t-10 176.5t11.5 176.5t37 115.5t66 63.5t97.5 19.5t97.5 -19.5t65.5 -63.5t36.5 -115.5t11.5 -176.5zM303 360q0 76 -2 127t-8 82t-17.5 44t-30.5 13 q-20 0 -31.5 -13.5t-17.5 -44.5t-8 -82t-2 -126t2 -126t8.5 -82t18 -44t30.5 -13t30.5 13t17.5 43.5t8 81.5t2 127zM261 885h152l-122 -117h-110z" />
<glyph unicode="&#xd4;" horiz-adv-x="489" d="M456 360q0 -105 -11.5 -176.5t-36.5 -115.5t-65.5 -63.5t-97.5 -19.5q-62 0 -103 19.5t-65 63.5t-34 115.5t-10 176.5t11.5 176.5t37 115.5t66 63.5t97.5 19.5t97.5 -19.5t65.5 -63.5t36.5 -115.5t11.5 -176.5zM303 360q0 76 -2 127t-8 82t-17.5 44t-30.5 13 q-20 0 -31.5 -13.5t-17.5 -44.5t-8 -82t-2 -126t2 -126t8.5 -82t18 -44t30.5 -13t30.5 13t17.5 43.5t8 81.5t2 127zM406 768h-125l-38 37l-38 -37h-125l105 117h116z" />
<glyph unicode="&#xd5;" horiz-adv-x="489" d="M456 360q0 -105 -11.5 -176.5t-36.5 -115.5t-65.5 -63.5t-97.5 -19.5q-62 0 -103 19.5t-65 63.5t-34 115.5t-10 176.5t11.5 176.5t37 115.5t66 63.5t97.5 19.5t97.5 -19.5t65.5 -63.5t36.5 -115.5t11.5 -176.5zM303 360q0 76 -2 127t-8 82t-17.5 44t-30.5 13 q-20 0 -31.5 -13.5t-17.5 -44.5t-8 -82t-2 -126t2 -126t8.5 -82t18 -44t30.5 -13t30.5 13t17.5 43.5t8 81.5t2 127zM308 765q-24 0 -41 6t-31 13t-27.5 13t-30.5 6q-33 0 -78 -36v95q22 16 41.5 24.5t40.5 8.5q24 0 41 -6t31 -13t27.5 -13t30.5 -6q33 0 78 36v-95 q-22 -16 -41.5 -24.5t-40.5 -8.5z" />
<glyph unicode="&#xd6;" horiz-adv-x="489" d="M456 360q0 -105 -11.5 -176.5t-36.5 -115.5t-65.5 -63.5t-97.5 -19.5q-62 0 -103 19.5t-65 63.5t-34 115.5t-10 176.5t11.5 176.5t37 115.5t66 63.5t97.5 19.5t97.5 -19.5t65.5 -63.5t36.5 -115.5t11.5 -176.5zM303 360q0 76 -2 127t-8 82t-17.5 44t-30.5 13 q-20 0 -31.5 -13.5t-17.5 -44.5t-8 -82t-2 -126t2 -126t8.5 -82t18 -44t30.5 -13t30.5 13t17.5 43.5t8 81.5t2 127zM84 773v102h130v-102h-130zM273 773v102h130v-102h-130z" />
<glyph unicode="&#xd7;" d="M125 321l-92 92l85 85l92 -92l92 92l85 -85l-92 -92l92 -92l-85 -85l-92 92l-92 -92l-85 85z" />
<glyph unicode="&#xd8;" horiz-adv-x="489" d="M456 360q0 -105 -11.5 -176.5t-36.5 -115.5t-65.5 -63.5t-97.5 -19.5q-18 0 -34 2t-30 5l-29 -94h-85l39 131q-41 39 -57 119t-16 212q0 105 11.5 176.5t37 115.5t66 63.5t97.5 19.5q32 0 64 -8l29 93h85l-40 -135q38 -41 55.5 -119.5t17.5 -205.5zM186 360v-85 q0 -12 1 -23l92 357q-11 17 -34 17q-20 0 -31.5 -13.5t-17.5 -44.5t-8 -82t-2 -126zM303 360v67q0 11 -1 21l-89 -339q11 -14 32 -14q19 0 30.5 13t17.5 43.5t8 81.5t2 127z" />
<glyph unicode="&#xd9;" horiz-adv-x="477" d="M195 720v-502q0 -37 2.5 -61t7.5 -37.5t14 -19t22 -5.5t22 5.5t14.5 19t8 37.5t2.5 61v502h144v-493q0 -59 -9 -104t-31 -75.5t-59 -46.5t-93 -16t-93.5 16t-60 46.5t-32 75.5t-9.5 104v493h150zM304 768h-110l-122 117h152z" />
<glyph unicode="&#xda;" horiz-adv-x="477" d="M195 720v-502q0 -37 2.5 -61t7.5 -37.5t14 -19t22 -5.5t22 5.5t14.5 19t8 37.5t2.5 61v502h144v-493q0 -59 -9 -104t-31 -75.5t-59 -46.5t-93 -16t-93.5 16t-60 46.5t-32 75.5t-9.5 104v493h150zM257 885h152l-122 -117h-110z" />
<glyph unicode="&#xdb;" horiz-adv-x="477" d="M195 720v-502q0 -37 2.5 -61t7.5 -37.5t14 -19t22 -5.5t22 5.5t14.5 19t8 37.5t2.5 61v502h144v-493q0 -59 -9 -104t-31 -75.5t-59 -46.5t-93 -16t-93.5 16t-60 46.5t-32 75.5t-9.5 104v493h150zM401 768h-125l-38 37l-38 -37h-125l105 117h116z" />
<glyph unicode="&#xdc;" horiz-adv-x="477" d="M195 720v-502q0 -37 2.5 -61t7.5 -37.5t14 -19t22 -5.5t22 5.5t14.5 19t8 37.5t2.5 61v502h144v-493q0 -59 -9 -104t-31 -75.5t-59 -46.5t-93 -16t-93.5 16t-60 46.5t-32 75.5t-9.5 104v493h150zM81 773v102h130v-102h-130zM270 773v102h130v-102h-130z" />
<glyph unicode="&#xdd;" horiz-adv-x="452" d="M452 720l-154 -432v-288h-144v288l-154 432h162l68 -287l82 287h140zM200 885h152l-122 -117h-110z" />
<glyph unicode="&#xde;" horiz-adv-x="479" d="M195 720v-115h6q57 0 102.5 -9.5t77 -35.5t48.5 -72.5t17 -120.5t-16.5 -120.5t-47.5 -72.5t-75.5 -35.5t-99.5 -9.5h-12v-129h-150v720h150zM195 498v-262h14q19 0 34 5t25.5 19t16 39.5t5.5 67.5t-5 67.5t-15.5 39.5t-27 19t-39.5 5h-8z" />
<glyph unicode="&#xdf;" horiz-adv-x="479" d="M464 175q0 -37 -9 -70.5t-27 -59t-46 -40.5t-67 -15q-38 0 -61.5 9t-41.5 27l50 91q15 -19 34 -19q6 0 12 2.5t10.5 9.5t7.5 20t3 33q0 17 -3 29.5t-9.5 23t-17.5 20.5t-27 22q-28 20 -47.5 51.5t-19.5 87.5q0 48 16 77t47 49q3 12 4 28.5t1 30.5q0 30 -14.5 50t-38.5 20 q-20 0 -32.5 -21t-12.5 -79v-552h-140v533q0 106 47 159t138 53t132.5 -42t41.5 -126q0 -17 -4.5 -47.5t-19.5 -57.5q-23 -4 -36 -18t-13 -34q0 -21 8.5 -32t34.5 -28q48 -30 74 -73t26 -112z" />
<glyph unicode="&#xe0;" horiz-adv-x="400" d="M276 0l-28 51q-17 -26 -45 -42.5t-70 -16.5q-27 0 -49 9t-37 28.5t-23.5 51t-8.5 77.5q0 37 7 69t24.5 56.5t46.5 40.5t74 21l58 6v40q0 39 -6 54t-21 15t-21 -18t-8 -48l-135 20q5 22 15.5 47t30 46t50.5 34.5t78 13.5q86 0 121.5 -46t35.5 -143v-366h-89zM192 91 q7 0 15.5 2t17.5 7v169l-25 -3q-23 -3 -33 -24t-10 -66q0 -52 9.5 -68.5t25.5 -16.5zM302 598h-105l-127 137h152z" />
<glyph unicode="&#xe1;" horiz-adv-x="400" d="M276 0l-28 51q-17 -26 -45 -42.5t-70 -16.5q-27 0 -49 9t-37 28.5t-23.5 51t-8.5 77.5q0 37 7 69t24.5 56.5t46.5 40.5t74 21l58 6v40q0 39 -6 54t-21 15t-21 -18t-8 -48l-135 20q5 22 15.5 47t30 46t50.5 34.5t78 13.5q86 0 121.5 -46t35.5 -143v-366h-89zM192 91 q7 0 15.5 2t17.5 7v169l-25 -3q-23 -3 -33 -24t-10 -66q0 -52 9.5 -68.5t25.5 -16.5zM216 735h152l-127 -137h-105z" />
<glyph unicode="&#xe2;" horiz-adv-x="400" d="M276 0l-28 51q-17 -26 -45 -42.5t-70 -16.5q-27 0 -49 9t-37 28.5t-23.5 51t-8.5 77.5q0 37 7 69t24.5 56.5t46.5 40.5t74 21l58 6v40q0 39 -6 54t-21 15t-21 -18t-8 -48l-135 20q5 22 15.5 47t30 46t50.5 34.5t78 13.5q86 0 121.5 -46t35.5 -143v-366h-89zM192 91 q7 0 15.5 2t17.5 7v169l-25 -3q-23 -3 -33 -24t-10 -66q0 -52 9.5 -68.5t25.5 -16.5zM361 598h-122l-41 52l-41 -52h-122l105 137h116z" />
<glyph unicode="&#xe3;" horiz-adv-x="400" d="M276 0l-28 51q-17 -26 -45 -42.5t-70 -16.5q-27 0 -49 9t-37 28.5t-23.5 51t-8.5 77.5q0 37 7 69t24.5 56.5t46.5 40.5t74 21l58 6v40q0 39 -6 54t-21 15t-21 -18t-8 -48l-135 20q5 22 15.5 47t30 46t50.5 34.5t78 13.5q86 0 121.5 -46t35.5 -143v-366h-89zM192 91 q7 0 15.5 2t17.5 7v169l-25 -3q-23 -3 -33 -24t-10 -66q0 -52 9.5 -68.5t25.5 -16.5zM261 610q-24 0 -41 6t-31 13t-27.5 13t-30.5 6q-33 0 -78 -36v100q22 16 41.5 24.5t40.5 8.5q24 0 41 -6t31 -13t27.5 -13t30.5 -6q33 0 78 36v-100q-22 -16 -41.5 -24.5t-40.5 -8.5z" />
<glyph unicode="&#xe4;" horiz-adv-x="400" d="M276 0l-28 51q-17 -26 -45 -42.5t-70 -16.5q-27 0 -49 9t-37 28.5t-23.5 51t-8.5 77.5q0 37 7 69t24.5 56.5t46.5 40.5t74 21l58 6v40q0 39 -6 54t-21 15t-21 -18t-8 -48l-135 20q5 22 15.5 47t30 46t50.5 34.5t78 13.5q86 0 121.5 -46t35.5 -143v-366h-89zM192 91 q7 0 15.5 2t17.5 7v169l-25 -3q-23 -3 -33 -24t-10 -66q0 -52 9.5 -68.5t25.5 -16.5zM50 613v112h130v-112h-130zM239 613v112h130v-112h-130z" />
<glyph unicode="&#xe5;" horiz-adv-x="400" d="M276 0l-28 51q-17 -26 -45 -42.5t-70 -16.5q-27 0 -49 9t-37 28.5t-23.5 51t-8.5 77.5q0 37 7 69t24.5 56.5t46.5 40.5t74 21l58 6v40q0 39 -6 54t-21 15t-21 -18t-8 -48l-135 20q5 22 15.5 47t30 46t50.5 34.5t78 13.5q86 0 121.5 -46t35.5 -143v-366h-89zM192 91 q7 0 15.5 2t17.5 7v169l-25 -3q-23 -3 -33 -24t-10 -66q0 -52 9.5 -68.5t25.5 -16.5zM79 691q0 57 32.5 88t95.5 31t95.5 -31t32.5 -88t-33.5 -87t-94.5 -30t-94.5 30t-33.5 87zM177 691q0 -46 30 -46t30 46q0 48 -30 48t-30 -48z" />
<glyph unicode="&#xe6;" horiz-adv-x="592" d="M404 91q16 0 23.5 17.5t10.5 49.5l128 -20q-3 -23 -13 -48.5t-29.5 -48t-49.5 -37t-73 -14.5q-51 0 -80.5 18t-45.5 60q-14 -35 -49 -55.5t-89 -20.5q-29 0 -52 8.5t-38.5 27.5t-23.5 50t-8 75q0 36 7 66.5t24.5 53.5t46.5 37.5t74 19.5l58 6v55q0 39 -6 54t-21 15 t-21 -18t-8 -48l-135 20q5 22 15.5 47t30 46t50.5 34.5t78 13.5q31 0 56 -10t44 -27q34 37 91 37q60 0 93.5 -22.5t50 -63t20.5 -98t4 -127.5h-203q0 -50 2.5 -80.5t8 -46.5t13 -21t16.5 -5zM192 91q7 0 16 3t17 11v149l-25 -3q-23 -3 -33 -20.5t-10 -59.5q0 -26 2.5 -42 t7 -24.5t11 -11t14.5 -2.5zM403 465q-10 0 -17 -4.5t-11.5 -18.5t-7 -39.5t-3.5 -68.5h75q0 43 -2 68.5t-6.5 39.5t-11 18.5t-16.5 4.5z" />
<glyph unicode="&#xe7;" horiz-adv-x="386" d="M317 -142q0 -51 -33 -81t-96 -30q-31 0 -59.5 8.5t-51.5 23.5l37 68q9 -6 23.5 -11.5t32.5 -5.5q23 0 33 11t10 23q0 38 -73 45l22 84q-32 6 -57.5 23.5t-43 50.5t-27 84t-9.5 124q0 146 41 213t135 67q52 0 84 -18t50 -44t25 -57t10 -56l-133 -20q-2 48 -8.5 72.5 t-23.5 24.5q-10 0 -16.5 -6t-10.5 -25.5t-6 -56t-2 -97.5t2 -97t6 -55.5t10.5 -25.5t15.5 -6q11 0 18 9t10.5 22.5t4.5 30.5t1 34l138 -16q-3 -26 -10 -53t-21 -51t-37 -42.5t-58 -26.5l-5 -46q38 -11 55 -36.5t17 -54.5z" />
<glyph unicode="&#xe8;" horiz-adv-x="392" d="M204 91q16 0 23.5 17.5t10.5 49.5l128 -20q-3 -23 -13 -48.5t-29.5 -48t-49.5 -37t-73 -14.5q-93 0 -134.5 66.5t-41.5 213.5q0 79 10.5 133.5t32 88t54 48.5t77.5 15q60 0 93.5 -22.5t50 -64.5t20.5 -102.5t4 -136.5h-201q1 -45 3.5 -72.5t7 -42t11.5 -19t16 -4.5z M203 465q-9 0 -16 -5t-11.5 -20t-7 -43.5t-2.5 -75.5h73q0 46 -2.5 74.5t-7 44t-11 20.5t-15.5 5zM285 598h-105l-127 137h152z" />
<glyph unicode="&#xe9;" horiz-adv-x="392" d="M204 91q16 0 23.5 17.5t10.5 49.5l128 -20q-3 -23 -13 -48.5t-29.5 -48t-49.5 -37t-73 -14.5q-93 0 -134.5 66.5t-41.5 213.5q0 79 10.5 133.5t32 88t54 48.5t77.5 15q60 0 93.5 -22.5t50 -64.5t20.5 -102.5t4 -136.5h-201q1 -45 3.5 -72.5t7 -42t11.5 -19t16 -4.5z M203 465q-9 0 -16 -5t-11.5 -20t-7 -43.5t-2.5 -75.5h73q0 46 -2.5 74.5t-7 44t-11 20.5t-15.5 5zM206 735h152l-127 -137h-105z" />
<glyph unicode="&#xea;" horiz-adv-x="392" d="M204 91q16 0 23.5 17.5t10.5 49.5l128 -20q-3 -23 -13 -48.5t-29.5 -48t-49.5 -37t-73 -14.5q-93 0 -134.5 66.5t-41.5 213.5q0 79 10.5 133.5t32 88t54 48.5t77.5 15q60 0 93.5 -22.5t50 -64.5t20.5 -102.5t4 -136.5h-201q1 -45 3.5 -72.5t7 -42t11.5 -19t16 -4.5z M203 465q-9 0 -16 -5t-11.5 -20t-7 -43.5t-2.5 -75.5h73q0 46 -2.5 74.5t-7 44t-11 20.5t-15.5 5zM360 598h-122l-41 52l-41 -52h-122l105 137h116z" />
<glyph unicode="&#xeb;" horiz-adv-x="392" d="M204 91q16 0 23.5 17.5t10.5 49.5l128 -20q-3 -23 -13 -48.5t-29.5 -48t-49.5 -37t-73 -14.5q-93 0 -134.5 66.5t-41.5 213.5q0 79 10.5 133.5t32 88t54 48.5t77.5 15q60 0 93.5 -22.5t50 -64.5t20.5 -102.5t4 -136.5h-201q1 -45 3.5 -72.5t7 -42t11.5 -19t16 -4.5z M203 465q-9 0 -16 -5t-11.5 -20t-7 -43.5t-2.5 -75.5h73q0 46 -2.5 74.5t-7 44t-11 20.5t-15.5 5zM43 613v112h130v-112h-130zM232 613v112h130v-112h-130z" />
<glyph unicode="&#xec;" horiz-adv-x="210" d="M35 0v540h140v-540h-140zM202 598h-105l-127 137h152z" />
<glyph unicode="&#xed;" horiz-adv-x="210" d="M35 0v540h140v-540h-140zM91 735h152l-127 -137h-105z" />
<glyph unicode="&#xee;" horiz-adv-x="210" d="M269 598h-122l-41 52l-41 -52h-122l105 137h116zM35 0v540h140v-540h-140z" />
<glyph unicode="&#xef;" horiz-adv-x="210" d="M35 0v540h140v-540h-140zM-54 613v112h130v-112h-130zM135 613v112h130v-112h-130z" />
<glyph unicode="&#xf0;" horiz-adv-x="484" d="M386 337q0 -105 -10.5 -172t-32.5 -106t-56.5 -54t-83.5 -15q-42 0 -74.5 12.5t-55 41.5t-34 76t-11.5 117q0 120 27.5 178t100.5 58q26 0 46 -11.5t36 -28.5q-10 76 -34 119l-24 -26h-102l78 81q-17 13 -35.5 21t-37.5 15l47 92q26 -8 52.5 -19t50.5 -27l30 31h102 l-76 -79q43 -48 70 -121t27 -183zM207 365q-11 0 -18 -6t-11.5 -21t-6 -40.5t-1.5 -64.5q0 -47 1.5 -75t5.5 -43t10.5 -20t15.5 -5t16 7t12.5 33.5t8 79t2.5 143.5v1q-24 11 -35 11z" />
<glyph unicode="&#xf1;" horiz-adv-x="423" d="M35 0v540h95l25 -53q23 30 54 49t69 19q28 0 49 -9.5t34.5 -31.5t20 -58t6.5 -88v-368h-140v378q0 43 -8.5 55.5t-29.5 12.5q-15 0 -35 -11v-435h-140zM274 610q-24 0 -41 6t-31 13t-27.5 13t-30.5 6q-33 0 -78 -36v100q22 16 41.5 24.5t40.5 8.5q24 0 41 -6t31 -13 t27.5 -13t30.5 -6q33 0 78 36v-100q-22 -16 -41.5 -24.5t-40.5 -8.5z" />
<glyph unicode="&#xf2;" horiz-adv-x="419" d="M25 270q0 83 13.5 138t38.5 87.5t58.5 46t74.5 13.5q40 0 74 -13t58.5 -45.5t38 -87.5t13.5 -139t-13.5 -138t-38 -85.5t-58.5 -44t-74 -12.5q-41 0 -74.5 12.5t-58.5 44.5t-38.5 86t-13.5 137zM169 270q0 -57 2 -92.5t7 -56t13 -27.5t20 -7t19.5 7t12 27t6.5 55.5 t2 93.5t-2 94.5t-7 57t-13 28t-19 7.5t-19 -8t-13 -28.5t-7 -57t-2 -93.5zM285 598h-105l-127 137h152z" />
<glyph unicode="&#xf3;" horiz-adv-x="419" d="M25 270q0 83 13.5 138t38.5 87.5t58.5 46t74.5 13.5q40 0 74 -13t58.5 -45.5t38 -87.5t13.5 -139t-13.5 -138t-38 -85.5t-58.5 -44t-74 -12.5q-41 0 -74.5 12.5t-58.5 44.5t-38.5 86t-13.5 137zM169 270q0 -57 2 -92.5t7 -56t13 -27.5t20 -7t19.5 7t12 27t6.5 55.5 t2 93.5t-2 94.5t-7 57t-13 28t-19 7.5t-19 -8t-13 -28.5t-7 -57t-2 -93.5zM215 735h152l-127 -137h-105z" />
<glyph unicode="&#xf4;" horiz-adv-x="419" d="M25 270q0 83 13.5 138t38.5 87.5t58.5 46t74.5 13.5q40 0 74 -13t58.5 -45.5t38 -87.5t13.5 -139t-13.5 -138t-38 -85.5t-58.5 -44t-74 -12.5q-41 0 -74.5 12.5t-58.5 44.5t-38.5 86t-13.5 137zM169 270q0 -57 2 -92.5t7 -56t13 -27.5t20 -7t19.5 7t12 27t6.5 55.5 t2 93.5t-2 94.5t-7 57t-13 28t-19 7.5t-19 -8t-13 -28.5t-7 -57t-2 -93.5zM373 598h-122l-41 52l-41 -52h-122l105 137h116z" />
<glyph unicode="&#xf5;" horiz-adv-x="419" d="M25 270q0 83 13.5 138t38.5 87.5t58.5 46t74.5 13.5q40 0 74 -13t58.5 -45.5t38 -87.5t13.5 -139t-13.5 -138t-38 -85.5t-58.5 -44t-74 -12.5q-41 0 -74.5 12.5t-58.5 44.5t-38.5 86t-13.5 137zM169 270q0 -57 2 -92.5t7 -56t13 -27.5t20 -7t19.5 7t12 27t6.5 55.5 t2 93.5t-2 94.5t-7 57t-13 28t-19 7.5t-19 -8t-13 -28.5t-7 -57t-2 -93.5zM275 610q-24 0 -41 6t-31 13t-27.5 13t-30.5 6q-33 0 -78 -36v100q22 16 41.5 24.5t40.5 8.5q24 0 41 -6t31 -13t27.5 -13t30.5 -6q33 0 78 36v-100q-22 -16 -41.5 -24.5t-40.5 -8.5z" />
<glyph unicode="&#xf6;" horiz-adv-x="419" d="M25 270q0 83 13.5 138t38.5 87.5t58.5 46t74.5 13.5q40 0 74 -13t58.5 -45.5t38 -87.5t13.5 -139t-13.5 -138t-38 -85.5t-58.5 -44t-74 -12.5q-41 0 -74.5 12.5t-58.5 44.5t-38.5 86t-13.5 137zM169 270q0 -57 2 -92.5t7 -56t13 -27.5t20 -7t19.5 7t12 27t6.5 55.5 t2 93.5t-2 94.5t-7 57t-13 28t-19 7.5t-19 -8t-13 -28.5t-7 -57t-2 -93.5zM51 613v112h130v-112h-130zM240 613v112h130v-112h-130z" />
<glyph unicode="&#xf7;" d="M137 51v135h145v-135h-145zM137 456v135h145v-135h-145zM40 261v120h340v-120h-340z" />
<glyph unicode="&#xf8;" horiz-adv-x="419" d="M25 270q0 83 13.5 138t38.5 87.5t58.5 46t74.5 13.5q27 0 44 -4l25 82h82l-35 -119q32 -30 50 -88.5t18 -155.5q0 -84 -13.5 -138t-38 -85.5t-58.5 -44t-74 -12.5q-27 0 -42 4l-29 -96h-82l38 129q-33 29 -51.5 86.5t-18.5 156.5zM169 270v-51q0 -7 1 -14l62 240 q-8 12 -22 12q-11 0 -19 -8t-13 -28.5t-7 -57t-2 -93.5zM251 270v42q0 7 -1 13l-60 -230q8 -8 21 -8q12 0 19.5 7t12 27t6.5 55.5t2 93.5z" />
<glyph unicode="&#xf9;" d="M175 540v-373q0 -22 1.5 -35t5.5 -20.5t10.5 -10t16.5 -2.5q12 0 36 11v430h140v-540h-105l-19 51q-20 -27 -46.5 -44t-60.5 -17q-63 0 -91 41t-28 137v372h140zM288 598h-105l-127 137h152z" />
<glyph unicode="&#xfa;" d="M175 540v-373q0 -22 1.5 -35t5.5 -20.5t10.5 -10t16.5 -2.5q12 0 36 11v430h140v-540h-105l-19 51q-20 -27 -46.5 -44t-60.5 -17q-63 0 -91 41t-28 137v372h140zM214 735h152l-127 -137h-105z" />
<glyph unicode="&#xfb;" d="M175 540v-373q0 -22 1.5 -35t5.5 -20.5t10.5 -10t16.5 -2.5q12 0 36 11v430h140v-540h-105l-19 51q-20 -27 -46.5 -44t-60.5 -17q-63 0 -91 41t-28 137v372h140zM373 592h-122l-41 52l-41 -52h-122l105 137h116z" />
<glyph unicode="&#xfc;" d="M175 540v-373q0 -22 1.5 -35t5.5 -20.5t10.5 -10t16.5 -2.5q12 0 36 11v430h140v-540h-105l-19 51q-20 -27 -46.5 -44t-60.5 -17q-63 0 -91 41t-28 137v372h140zM50 613v112h130v-112h-130zM239 613v112h130v-112h-130z" />
<glyph unicode="&#xfd;" horiz-adv-x="401" d="M282 -15q-17 -81 -56 -115.5t-99 -34.5q-37 0 -70 11v100q29 -8 49 -8t34 13.5t19 48.5h-46l-113 540h153l46 -428l63 428h139zM171 735h152l-127 -137h-105z" />
<glyph unicode="&#xfe;" horiz-adv-x="405" d="M35 -170v905h140v-227q20 21 43 34t48 13q30 0 51.5 -12t35.5 -43t20.5 -85.5t6.5 -139.5q0 -74 -6.5 -128t-22 -89t-42.5 -51.5t-69 -16.5q-38 0 -65 21v-181h-140zM208 446q-13 0 -33 -11v-356q12 -3 24 -3q14 0 22 8.5t12.5 31.5t5.5 62.5t1 101.5q0 53 -1 85.5 t-4.5 50.5t-10 24t-16.5 6z" />
<glyph unicode="&#xff;" horiz-adv-x="401" d="M282 -15q-17 -81 -56 -115.5t-99 -34.5q-37 0 -70 11v100q29 -8 49 -8t34 13.5t19 48.5h-46l-113 540h153l46 -428l63 428h139zM41 613v112h130v-112h-130zM230 613v112h130v-112h-130z" />
<glyph unicode="&#x131;" horiz-adv-x="210" d="M35 0v540h140v-540h-140z" />
<glyph unicode="&#x152;" horiz-adv-x="653" d="M596 309h-151q-1 -63 -5.5 -111.5t-15.5 -84.5h202v-113h-290q-38 -15 -92 -15q-57 0 -97.5 19.5t-65.5 63.5t-36.5 115.5t-11.5 176.5t11.5 176.5t36.5 115.5t65.5 63.5t97.5 19.5q49 0 87 -15h295v-115h-205q11 -35 16.5 -81.5t7.5 -106.5h151v-108zM186 360 q0 -76 2 -127t8 -81.5t17.5 -43.5t30.5 -13t30.5 13t18 44t8.5 82t2 126t-2 126t-8 82t-18 44.5t-31 13.5q-20 0 -31.5 -13t-17.5 -44t-7.5 -82t-1.5 -127z" />
<glyph unicode="&#x153;" horiz-adv-x="604" d="M416 91q16 0 23.5 17.5t10.5 49.5l128 -20q-3 -23 -13 -48.5t-29.5 -48t-49.5 -37t-73 -14.5q-32 0 -60 13t-39 34q-15 -22 -43.5 -34.5t-60.5 -12.5q-44 0 -78.5 12.5t-58 44.5t-36 86t-12.5 137t12.5 138t36 87.5t58 46t78.5 13.5q31 0 59 -12.5t42 -34.5 q15 22 41 34.5t59 12.5q60 0 93.5 -22.5t50 -64.5t20.5 -102.5t4 -136.5h-201q1 -45 3.5 -72.5t7 -42t11.5 -19t16 -4.5zM169 270q0 -57 2 -92.5t7 -56t13 -27.5t20 -7t19.5 7t12 27t6.5 55.5t2 93.5t-2 94.5t-7 57t-13 28t-19 7.5t-19 -8t-13 -28.5t-7 -57t-2 -93.5z M415 465q-10 0 -17 -5t-11.5 -20t-6.5 -43.5t-2 -75.5h73q0 46 -2 74.5t-6.5 44t-11 20.5t-16.5 5z" />
<glyph unicode="&#x178;" horiz-adv-x="452" d="M452 720l-154 -432v-288h-144v288l-154 432h162l68 -287l82 287h140zM70 773v102h130v-102h-130zM259 773v102h130v-102h-130z" />
<glyph unicode="&#x2c6;" horiz-adv-x="386" d="M356 598h-122l-41 52l-41 -52h-122l105 137h116z" />
<glyph unicode="&#x2da;" horiz-adv-x="316" d="M30 691q0 57 32.5 88t95.5 31t95.5 -31t32.5 -88t-33.5 -87t-94.5 -30t-94.5 30t-33.5 87zM128 691q0 -46 30 -46t30 46q0 48 -30 48t-30 -48z" />
<glyph unicode="&#x2dc;" horiz-adv-x="350" d="M238 610q-24 0 -41 6t-31 13t-27.5 13t-30.5 6q-33 0 -78 -36v100q22 16 41.5 24.5t40.5 8.5q24 0 41 -6t31 -13t27.5 -13t30.5 -6q33 0 78 36v-100q-22 -16 -41.5 -24.5t-40.5 -8.5z" />
<glyph unicode="&#x2000;" horiz-adv-x="465" />
<glyph unicode="&#x2001;" horiz-adv-x="930" />
<glyph unicode="&#x2002;" horiz-adv-x="465" />
<glyph unicode="&#x2003;" horiz-adv-x="930" />
<glyph unicode="&#x2004;" horiz-adv-x="310" />
<glyph unicode="&#x2005;" horiz-adv-x="232" />
<glyph unicode="&#x2006;" horiz-adv-x="155" />
<glyph unicode="&#x2007;" horiz-adv-x="155" />
<glyph unicode="&#x2008;" horiz-adv-x="116" />
<glyph unicode="&#x2009;" horiz-adv-x="186" />
<glyph unicode="&#x200a;" horiz-adv-x="51" />
<glyph unicode="&#x2010;" horiz-adv-x="300" d="M30 261v121h240v-121h-240z" />
<glyph unicode="&#x2011;" horiz-adv-x="300" d="M30 261v121h240v-121h-240z" />
<glyph unicode="&#x2012;" horiz-adv-x="300" d="M30 261v121h240v-121h-240z" />
<glyph unicode="&#x2013;" horiz-adv-x="360" d="M0 261v121h360v-121h-360z" />
<glyph unicode="&#x2014;" horiz-adv-x="500" d="M0 261v121h500v-121h-500z" />
<glyph unicode="&#x2018;" horiz-adv-x="220" d="M40 582l60 153h75l-37 -152h42v-125h-140v124z" />
<glyph unicode="&#x2019;" horiz-adv-x="220" d="M180 611l-60 -153h-75l37 152h-42v125h140v-124z" />
<glyph unicode="&#x201a;" horiz-adv-x="220" d="M180 1l-60 -153h-75l37 152h-42v125h140v-124z" />
<glyph unicode="&#x201c;" horiz-adv-x="400" d="M220 582l60 153h75l-37 -152h42v-125h-140v124zM40 582l60 153h75l-37 -152h42v-125h-140v124z" />
<glyph unicode="&#x201d;" horiz-adv-x="400" d="M180 611l-60 -153h-75l37 152h-42v125h140v-124zM360 611l-60 -153h-75l37 152h-42v125h140v-124z" />
<glyph unicode="&#x201e;" horiz-adv-x="400" d="M360 1l-60 -153h-75l37 152h-42v125h140v-124zM180 1l-60 -153h-75l37 152h-42v125h140v-124z" />
<glyph unicode="&#x2022;" horiz-adv-x="255" d="M30 228v185h195v-185h-195z" />
<glyph unicode="&#x2026;" horiz-adv-x="675" d="M40 0v135h145v-135h-145zM265 0v135h145v-135h-145zM490 0v135h145v-135h-145z" />
<glyph unicode="&#x202f;" horiz-adv-x="186" />
<glyph unicode="&#x2039;" horiz-adv-x="275" d="M30 326l115 205h90l-72 -208l62 -222h-90z" />
<glyph unicode="&#x203a;" horiz-adv-x="275" d="M140 101h-90l62 222l-72 208h90l115 -205z" />
<glyph unicode="&#x2044;" horiz-adv-x="250" d="M9 -100h-108l340 910h108z" />
<glyph unicode="&#x205f;" horiz-adv-x="232" />
<glyph unicode="&#x2074;" horiz-adv-x="300" d="M238 660v-95h36v-74h-36v-71h-89v71h-124v78l74 231h92l-74 -235h38l11 95h72z" />
<glyph unicode="&#x20ac;" d="M349 370h-121v-53h111l-20 -98h-88q3 -41 8 -66t13 -38.5t18 -18t24 -4.5q23 0 42.5 6.5t40.5 17.5v-109q-16 -8 -43 -15t-53 -7q-35 0 -66 9.5t-55.5 35t-42 71t-24.5 118.5h-75l20 98h49v53h-69l20 98h55q8 73 25.5 120t44 74t60 37.5t74.5 10.5q29 0 58.5 -9t55.5 -28 l-22 -108q-28 21 -48 30t-44 9q-14 0 -25 -6t-19 -21.5t-13.5 -42t-8.5 -66.5h138z" />
<glyph unicode="&#x2122;" horiz-adv-x="727" d="M442 324l-62 280v-280h-95v308h-80v-308h-108v308h-82v88h420l44 -251l44 251h154v-396h-103v280l-59 -280h-73z" />
<glyph unicode="&#x25fc;" horiz-adv-x="540" d="M0 540h540v-540h-540v540z" />
<glyph horiz-adv-x="292" d="M262 768h-110l-122 117h152z" />
<glyph horiz-adv-x="379" d="M30 773v102h130v-102h-130zM219 773v102h130v-102h-130z" />
<glyph horiz-adv-x="292" d="M110 885h152l-122 -117h-110z" />
<glyph horiz-adv-x="386" d="M356 768h-125l-38 37l-38 -37h-125l105 117h116z" />
<glyph horiz-adv-x="350" d="M238 765q-24 0 -41 6t-31 13t-27.5 13t-30.5 6q-33 0 -78 -36v95q22 16 41.5 24.5t40.5 8.5q24 0 41 -6t31 -13t27.5 -13t30.5 -6q33 0 78 36v-95q-22 -16 -41.5 -24.5t-40.5 -8.5z" />
</font>
</defs>
</svg>
